Bit Torrent Scene a public file sharing platform Home Upload Categories About

Warning! Use a VPN When Downloading Torrents!
Your IP Address is . Location is
Avoid LAWSUITS and FINES! Hide your IP ADDRESS with a VPN!
We strongly recommend using Trust.Zone VPN to anonymize your torrenting. It's FREE!
Get VPN Now for FREE!

[ShepardTDS] Freezing Vibration Dual Audio Uncensored [1080p 8-bit x265 HEVC] 1-12+OVAs Complete

DOWNLOAD TORRENT DOWNLOAD DOWNLOAD ANONYMOUS

Posted on January 7, 2016 in Anime » English Translated Video , verified torrent

Size: 5.73 GB , Seeds: 3 , Peers: 1 ( Updated June 24, 2016 - Refresh )

Quality: Audio 9/10 - Video 9/10 ( defined by users )

* Download via Magnet Link , * To download files you need a Bittorrent Client , * How to download torrents from Bit Torrent Scene?

Loading...

Internal Files

[ShepardTDS] Freezing Vibration Dual Audio Uncensored [1080p 8-bit x265 HEVC] 1-12+OVAs Complete
Freezing Vibration NCED.mkv   27.51 MB
Freezing Vibration NCOP.mkv   55.04 MB
Freezing Vibration OVA 1 Satellizer L. Bridget.mkv   68.91 MB
Freezing Vibration OVA 2 Scarlett O'Hara.mkv   37.17 MB
Freezing Vibration OVA 3 Julia Munberk.mkv   43.42 MB
Freezing Vibration OVA 4 Holly Rose.mkv   50.48 MB
Freezing Vibration OVA 5 Roxanne Elipton.mkv   39.72 MB
Freezing Vibration OVA 6 March Through The Snow.mkv   53.93 MB
Freezing Vibration 01 Pandora Returns.mkv   526.39 MB
Freezing Vibration 02 Evolution Pandora.mkv   404 MB
Freezing Vibration 03 Mark IV.mkv   434.55 MB
Freezing Vibration 04 Mate.mkv   450.1 MB
Freezing Vibration 05 Noblesse Oblige.mkv   403.82 MB
Freezing Vibration 06 Marionettes.mkv   367.14 MB
Freezing Vibration 07 Spellbound.mkv   440 MB
Freezing Vibration 08 Rebellion.mkv   444.46 MB
Freezing Vibration 09 Traitor.mkv   461.81 MB
Freezing Vibration 10 True Pandora.mkv   552.01 MB
Freezing Vibration 11 Nova Crash.mkv   570.29 MB
Freezing Vibration 12 Shaft of Light.mkv   426.39 MB
SHEPARDTDS HEVC ENCODES.txt   317 Byte

Hash Code

318b0b468d3d761a92a306f0d4cd72bcdc0115d5

Description

SCREENSHOT



Constant Quality encoding.

Variable Bit rates

ED and OP included

Blu-Ray Source

All 6 OVAs



SCREENSHOT



SCREENSHOT



General



Format : Matroska

File size : 367 MiB-570 MiB

Duration : 23mn 36s

Overall bit rate : 2 175 Kbps-3,376 Kbps

Encoded date : UTC 2015-12-15 17:15:29

Writing application : mkvmerge v8.5.2 ('Crosses') 32bit

Writing library : libebml v1.3.3 + libmatroska v1.4.4



Video

ID : 1

Format : V_MPEGH/ISO/HEVC

Codec ID : V_MPEGH/ISO/HEVC

Duration : 23mn 36s

Bit rate : 1 747 Kbps-2,925 Kbps

Width : 1 920 pixels

Height : 1 080 pixels

Display aspect ratio : 16:9

Frame rate : 23.976 fps

Bits/(Pixel*Frame) : 0.035

Stream size : 295 MiB (80%)



Audio #1

ID : 2

Format : AC-3

Format/Info : Audio Coding 3

Mode extension : CM (complete main)

Codec ID : A_AC3

Duration : 23mn 36s

Bit rate mode : Constant

Bit rate : 192 Kbps

Channel(s) : 6 channels

Channel positions : Front: L C R, Side: L R, LFE

Sampling rate : 48.0 KHz

Bit depth : 16 bits

Compression mode : Lossy

Stream size : 32.4 MiB (9%)

Language : English



Audio #2

ID : 3

Format : AC-3

Format/Info : Audio Coding 3

Mode extension : CM (complete main)

Codec ID : A_AC3

Duration : 23mn 36s

Bit rate mode : Constant

Bit rate : 192 Kbps

Channel(s) : 2 channels

Channel positions : Front: L R

Sampling rate : 48.0 KHz

Bit depth : 16 bits

Compression mode : Lossy

Stream size : 32.4 MiB (9%)

Language : Japanese



Text #1

ID : 4

Format : PGS

Muxing mode : zlib

Codec ID : S_HDMV/PGS

Codec ID/Info : The same subtitle format used on BDs/HD-DVDs

Language : English



Text #2

ID : 5

Format : PGS

Muxing mode : zlib

Codec ID : S_HDMV/PGS

Codec ID/Info : The same subtitle format used on BDs/HD-DVDs

Language : English



Menu

00:00:00.000 : en:Chapter 1

00:01:35.303 : en:Chapter 2

00:03:05.310 : en:Chapter 3

00:12:33.336 : en:Chapter 4

00:21:55.314 : en:Chapter 5

00:23:25.237 : en:Chapter 6


Torrent location

http://kat.cr/shepardtds-freezing-vibration-dual-audio-uncensored-1080p-8-bit-x265-hevc-1-12-ovas-complete-t11782762.html

Trackers

Refresh Leechers : Updated June 24, 2016

1. udp://tracker.coppersurfer.tk:6969/announce

2. udp://tracker.openbittorrent.com:80/announce

3. udp://glotorrents.pw:6969/announce

4. udp://tracker.publicbt.com:80/announce

5. udp://9.rarbg.com:2710/announce

6. udp://tracker.piratepublic.com:1337/announce

7. udp://tracker.opentrackr.org:1337/announce

8. udp://torrent.gresille.org:80/announce

Comments

You must log in to add a comment.

piscean0307 •2 2017-01-08 17:47:31

AUDIO: 9 - VIDEO: 9

To Date 01/08/17 this version is complete and reasonably fast download with no problems.
Continues to amaze the recipients.
lol

Embed Code

Sharing Widget

Related torrents

FILENAME SIZE SEEDS PEERS ADDED UPD
[i] [ShepardTDS] Freezing Vibration Dual Audio Uncensored [720p 8-bit x265 HEVC] 1-12+OVAs Complete 2.54 GB 3 0 1 year 8 months
[i]
[i]
[AnimeRG] Freezing Vibration [720p] [Dual-Audio] [Xcelent]
posted by AnimeRG in Anime - English Translated Video , Quality: Audio 9/10 - Video 9/10
5.38 GB 0 1 1 year 9 months

Top Anime ( auto generated report )

FILENAME SIZE SEEDS PEERS ADDED UPD
[i] [HorribleSubs] Kono Subarashii Sekai ni Shukufuku wo! 2 - 02 [720p].mkv 322.07 MB 1821 1061 4 days 4 days
[i] [HorribleSubs] Masamune-kun no Revenge - 03 [720p].mkv 323.07 MB 1559 425 3 days 3 days
[i] [HorribleSubs] Masamune-kun no Revenge - 02 [720p].mkv 322.57 MB 1481 520 1 week 1 week
[i] [HorribleSubs] Demi-chan wa Kataritai - 02 [720p].mkv 322.82 MB 1438 743 1 week 1 week
[i] [HorribleSubs] Ao no Exorcist - Kyoto Fujouou-hen - 02 [720p].mkv 333.07 MB 1412 394 1 week 1 week
[i] [HorribleSubs] Youjo Senki - 03 [720p].mkv 323.07 MB 1343 552 2 days 2 days
[i] [HorribleSubs] Gabriel DropOut - 02 [720p].mkv 322.82 MB 1340 355 6 days 6 days
[i] [HorribleSubs] Kuzu no Honkai - 01 [720p].mkv 360.07 MB 1253 527 1 week 1 week
[i] [HorribleSubs] Ao no Exorcist - Kyoto Fujouou-hen - 03 [720p].mkv 333.57 MB 1253 490 2 days 2 days
[i] [HorribleSubs] Urara Meirochou - 02 [720p].mkv 463.07 MB 1224 333 1 week 1 week
advertising ( remove )